ΣΤΟ ΞΕΣΠΑΣΜΑ ΤΟΥ ΦΕΓΓΑΡΙΟΥ (2010)

View previous topic View next topic Go down

ΣΤΟ ΞΕΣΠΑΣΜΑ ΤΟΥ ΦΕΓΓΑΡΙΟΥ (2010)

Post  agellikh1 on Fri Feb 21, 2014 11:03 am




Στο Ξέσπασμα του Φεγγαριού(2010)

Δραματική

Ένας έρωτας στη σκιά του μίσους!!!!!!!














Παραγωγή: ODEON, MS MEDIA,Μάνος Κρεζίας, Στράτος Μαρκίδης, Διονύσης Σαμιώτης


Σκηνοθεσία:Στράτος Μαρκίδης

Σεναριο:Γιώργος Χρυσοβιτσάνος,Ιωάννα Γιαννούλη

Τραγούδι: Βασίλης Σκουλάς





Ήθοποιοί:
Ιωσήφ Μαρινάκης, Κώστας Αποστολάκης, Τάνια Τρύπη, Τζένη Μπότση, Κατερίνα Γερονικολού,
Κώστας Λούκας, Πατρίτσια Περιστέρη, Νίκος Βερλέκης.........


Περίληψη:Η Αλεξάνδρα και ο Μάνος, δύο άγνωστα μεταξύ τους νέα παιδιά, νιώθουν ερωτική αναστάτωση με τις πρώτες ματιές που ανταλλάσσουν. Η επαφή τους διακόπτεται απότομα από τον αδελφό της Αλεξάνδρας, τον Στέφανο, που την παίρνει και φεύγουν.......


Avi File Details

File name :Στο ξέσπασμα του φεγγαριού.avi
File size : 894 MB MiB
Stream size: 796 MiB
Duration : 1h 33mn
Bit rate : 1203 Kbps
Frame rate : 23.976 fpsfps
Bit rate : 128 Kbps
Sampling rate: 48.0 KHz
Stream size : 85.6 MiB
Width x Height: 720x576




Όταν ο έρωτας έχει μυστικά, όταν τα μυστικά αποκαλύπτονται και οι αποκαλύψεις γίνονται επικίνδυνες...μέχρι που θα φτάσεις για να ξεφύγεις από το πεπρωμένο σου?











1η δημοσίευση 28Apr, 2011, 11:09 by agellikh1




agellikh1

Posts : 138
Join date : 2012-03-21

View user profile

Back to top Go down

View previous topic View next topic Back to top

- Similar topics

 
Permissions in this forum:
You cannot reply to topics in this forum